  0
SECTION
  2
HEADER
  9
$ACADVER
  1
AC1014
  9
$ACADMAINTVER
 70
     0
  9
$DWGCODEPAGE
  3
ANSI_1252
  9
$INSBASE
 10
0.0
 20
0.0
 30
0.0
  9
$EXTMIN
 10
-0.730302
 20
-0.5
 30
0.0
  9
$EXTMAX
 10
9.427
 20
4.377
 30
0.0
  9
$LIMMIN
 10
-0.6
 20
-0.6
  9
$LIMMAX
 10
9.6
 20
4.5
  9
$ORTHOMODE
 70
     0
  9
$REGENMODE
 70
     1
  9
$FILLMODE
 70
     0
  9
$QTEXTMODE
 70
     0
  9
$MIRRTEXT
 70
     1
  9
$DRAGMODE
 70
     2
  9
$LTSCALE
 40
1.0
  9
$OSMODE
 70
     0
  9
$ATTMODE
 70
     1
  9
$TEXTSIZE
 40
0.2
  9
$TRACEWID
 40
0.05
  9
$TEXTSTYLE
  7
STANDARD
  9
$CLAYER
  8
0
  9
$CELTYPE
  6
CONTINUOUS
  9
$CECOLOR
 62
   256
  9
$CELTSCALE
 40
1.0
  9
$DELOBJ
 70
     1
  9
$DISPSILH
 70
     0
  9
$DIMSCALE
 40
1.0
  9
$DIMASZ
 40
0.18
  9
$DIMEXO
 40
0.0625
  9
$DIMDLI
 40
0.38
  9
$DIMRND
 40
0.0
  9
$DIMDLE
 40
0.0
  9
$DIMEXE
 40
0.18
  9
$DIMTP
 40
0.0
  9
$DIMTM
 40
0.0
  9
$DIMTXT
 40
0.06
  9
$DIMCEN
 40
0.09
  9
$DIMTSZ
 40
0.0
  9
$DIMTOL
 70
     0
  9
$DIMLIM
 70
     0
  9
$DIMTIH
 70
     0
  9
$DIMTOH
 70
     0
  9
$DIMSE1
 70
     0
  9
$DIMSE2
 70
     0
  9
$DIMTAD
 70
     0
  9
$DIMZIN
 70
     0
  9
$DIMBLK
  1

  9
$DIMASO
 70
     1
  9
$DIMSHO
 70
     1
  9
$DIMPOST
  1

  9
$DIMAPOST
  1

  9
$DIMALT
 70
     1
  9
$DIMALTD
 70
     2
  9
$DIMALTF
 40
25.4
  9
$DIMLFAC
 40
1.0
  9
$DIMTOFL
 70
     0
  9
$DIMTVP
 40
0.0
  9
$DIMTIX
 70
     0
  9
$DIMSOXD
 70
     0
  9
$DIMSAH
 70
     0
  9
$DIMBLK1
  1

  9
$DIMBLK2
  1

  9
$DIMSTYLE
  2
STANDARD
  9
$DIMCLRD
 70
     0
  9
$DIMCLRE
 70
     0
  9
$DIMCLRT
 70
     0
  9
$DIMTFAC
 40
0.06
  9
$DIMGAP
 40
0.09
  9
$DIMJUST
 70
     0
  9
$DIMSD1
 70
     0
  9
$DIMSD2
 70
     0
  9
$DIMTOLJ
 70
     1
  9
$DIMTZIN
 70
     0
  9
$DIMALTZ
 70
     0
  9
$DIMALTTZ
 70
     0
  9
$DIMFIT
 70
     3
  9
$DIMUPT
 70
     0
  9
$DIMUNIT
 70
     2
  9
$DIMDEC
 70
     4
  9
$DIMTDEC
 70
     4
  9
$DIMALTU
 70
     2
  9
$DIMALTTD
 70
     2
  9
$DIMTXSTY
  7
STANDARD
  9
$DIMAUNIT
 70
     0
  9
$LUNITS
 70
     2
  9
$LUPREC
 70
     3
  9
$SKETCHINC
 40
0.1
  9
$FILLETRAD
 40
0.0
  9
$AUNITS
 70
     0
  9
$AUPREC
 70
     0
  9
$MENU
  1
.
  9
$ELEVATION
 40
0.0
  9
$PELEVATION
 40
0.0
  9
$THICKNESS
 40
0.0
  9
$LIMCHECK
 70
     0
  9
$BLIPMODE
 70
     0
  9
$CHAMFERA
 40
0.0
  9
$CHAMFERB
 40
0.0
  9
$CHAMFERC
 40
0.0
  9
$CHAMFERD
 40
0.0
  9
$SKPOLY
 70
     0
  9
$TDCREATE
 40
2452052.453556134
  9
$TDUPDATE
 40
2452052.453556134
  9
$TDINDWG
 40
0.0384783565
  9
$TDUSRTIMER
 40
0.0384783565
  9
$USRTIMER
 70
     1
  9
$ANGBASE
 50
0.0
  9
$ANGDIR
 70
     0
  9
$PDMODE
 70
     0
  9
$PDSIZE
 40
0.0
  9
$PLINEWID
 40
0.0
  9
$COORDS
 70
     1
  9
$SPLFRAME
 70
     0
  9
$SPLINETYPE
 70
     6
  9
$SPLINESEGS
 70
     8
  9
$ATTDIA
 70
     0
  9
$ATTREQ
 70
     1
  9
$HANDLING
 70
     1
  9
$HANDSEED
  5
1DB
  9
$SURFTAB1
 70
     6
  9
$SURFTAB2
 70
     6
  9
$SURFTYPE
 70
     6
  9
$SURFU
 70
     6
  9
$SURFV
 70
     6
  9
$UCSNAME
  2

  9
$UCSORG
 10
0.0
 20
0.0
 30
0.0
  9
$UCSXDIR
 10
1.0
 20
0.0
 30
0.0
  9
$UCSYDIR
 10
0.0
 20
1.0
 30
0.0
  9
$PUCSNAME
  2

  9
$PUCSORG
 10
0.0
 20
0.0
 30
0.0
  9
$PUCSXDIR
 10
1.0
 20
0.0
 30
0.0
  9
$PUCSYDIR
 10
0.0
 20
1.0
 30
0.0
  9
$USERI1
 70
     0
  9
$USERI2
 70
     0
  9
$USERI3
 70
     0
  9
$USERI4
 70
     0
  9
$USERI5
 70
     0
  9
$USERR1
 40
0.0
  9
$USERR2
 40
0.0
  9
$USERR3
 40
0.0
  9
$USERR4
 40
0.0
  9
$USERR5
 40
0.0
  9
$WORLDVIEW
 70
     1
  9
$SHADEDGE
 70
     3
  9
$SHADEDIF
 70
    70
  9
$TILEMODE
 70
     1
  9
$MAXACTVP
 70
    48
  9
$PINSBASE
 10
0.0
 20
0.0
 30
0.0
  9
$PLIMCHECK
 70
     0
  9
$PEXTMIN
 10
1.000000E+20
 20
1.000000E+20
 30
1.000000E+20
  9
$PEXTMAX
 10
-1.000000E+20
 20
-1.000000E+20
 30
-1.000000E+20
  9
$PLIMMIN
 10
0.0
 20
0.0
  9
$PLIMMAX
 10
12.0
 20
9.0
  9
$UNITMODE
 70
     0
  9
$VISRETAIN
 70
     1
  9
$PLINEGEN
 70
     0
  9
$PSLTSCALE
 70
     1
  9
$TREEDEPTH
 70
  3020
  9
$PICKSTYLE
 70
     1
  9
$CMLSTYLE
  2
STANDARD
  9
$CMLJUST
 70
     0
  9
$CMLSCALE
 40
1.0
  9
$PROXYGRAPHICS
 70
     1
  9
$MEASUREMENT
 70
     0
  0
ENDSEC
  0
SECTION
  2
CLASSES
  0
ENDSEC
  0
SECTION
  2
TABLES
  0
TABLE
  2
VPORT
  5
8
100
AcDbSymbolTable
 70
     1
  0
VPORT
  5
1D7
100
AcDbSymbolTableRecord
100
AcDbViewportTableRecord
  2
*ACTIVE
 70
     0
 10
0.0
 20
0.0
 11
1.0
 21
1.0
 12
4.348251
 22
1.938522
 13
0.0
 23
0.0
 14
1.0
 24
1.0
 15
0.0
 25
0.0
 16
0.0
 26
0.0
 36
1.0
 17
0.0
 27
0.0
 37
0.0
 40
6.072626
 41
1.683729
 42
50.0
 43
0.0
 44
0.0
 50
0.0
 51
0.0
 71
     0
 72
   100
 73
     1
 74
     1
 75
     0
 76
     0
 77
     0
 78
     0
  0
ENDTAB
  0
TABLE
  2
LTYPE
  5
5
100
AcDbSymbolTable
 70
     1
  0
LTYPE
  5
12
100
AcDbSymbolTableRecord
100
AcDbLinetypeTableRecord
  2
BYBLOCK
 70
     0
  3

 72
    65
 73
     0
 40
0.0
  0
LTYPE
  5
13
100
AcDbSymbolTableRecord
100
AcDbLinetypeTableRecord
  2
BYLAYER
 70
     0
  3

 72
    65
 73
     0
 40
0.0
  0
LTYPE
  5
14
100
AcDbSymbolTableRecord
100
AcDbLinetypeTableRecord
  2
CONTINUOUS
 70
     0
  3
Solid Line
 72
    65
 73
     0
 40
0.0
  0
ENDTAB
  0
TABLE
  2
LAYER
  5
2
100
AcDbSymbolTable
 70
     7
  0
LAYER
  5
E
100
AcDbSymbolTableRecord
100
AcDbLayerTableRecord
  2
0
 70
     0
 62
     7
  6
CONTINUOUS
  0
LAYER
  5
1F
100
AcDbSymbolTableRecord
100
AcDbLayerTableRecord
  2
BRDOUT
 70
     0
 62
     3
  6
CONTINUOUS
  0
LAYER
  5
20
100
AcDbSymbolTableRecord
100
AcDbLayerTableRecord
  2
SLKBOT
 70
     0
 62
     5
  6
CONTINUOUS
  0
LAYER
  5
21
100
AcDbSymbolTableRecord
100
AcDbLayerTableRecord
  2
REFDBT
 70
     0
 62
     6
  6
CONTINUOUS
  0
LAYER
  5
22
100
AcDbSymbolTableRecord
100
AcDbLayerTableRecord
  2
CENTRA
 70
     0
 62
    13
  6
CONTINUOUS
  0
LAYER
  5
23
100
AcDbSymbolTableRecord
100
AcDbLayerTableRecord
  2
TEXIN
 70
     0
 62
     9
  6
CONTINUOUS
  0
LAYER
  5
176
100
AcDbSymbolTableRecord
100
AcDbLayerTableRecord
  2
DEFPOINTS
 70
     0
 62
     7
  6
CONTINUOUS
  0
ENDTAB
  0
TABLE
  2
STYLE
  5
3
100
AcDbSymbolTable
 70
     1
  0
STYLE
  5
F
100
AcDbSymbolTableRecord
100
AcDbTextStyleTableRecord
  2
STANDARD
 70
     0
 40
0.0
 41
1.0
 50
0.0
 71
     0
 42
0.2
  3
txt
  4

  0
ENDTAB
  0
TABLE
  2
VIEW
  5
6
100
AcDbSymbolTable
 70
     0
  0
ENDTAB
  0
TABLE
  2
UCS
  5
7
100
AcDbSymbolTable
 70
     0
  0
ENDTAB
  0
TABLE
  2
APPID
  5
9
100
AcDbSymbolTable
 70
     1
  0
APPID
  5
10
100
AcDbSymbolTableRecord
100
AcDbRegAppTableRecord
  2
ACAD
 70
     0
  0
ENDTAB
  0
TABLE
  2
DIMSTYLE
  5
A
100
AcDbSymbolTable
 70
     1
  0
DIMSTYLE
105
16B
102
{ACAD_REACTORS
330
17B
330
197
330
1A5
102
}
100
AcDbSymbolTableRecord
100
AcDbDimStyleTableRecord
  2
STANDARD
 70
     0
  3

  4

  5

  6

  7

 40
1.0
 41
0.18
 42
0.0625
 43
0.38
 44
0.18
 45
0.0
 46
0.0
 47
0.0
 48
0.0
140
0.18
141
0.09
142
0.0
143
25.4
144
1.0
145
0.0
146
1.0
147
0.09
 71
     0
 72
     0
 73
     1
 74
     1
 75
     0
 76
     0
 77
     0
 78
     0
170
     0
171
     2
172
     0
173
     0
174
     0
175
     0
176
     0
177
     0
178
     0
270
     2
271
     4
272
     4
273
     2
274
     2
340
F
275
     0
280
     0
281
     0
282
     0
283
     1
284
     0
285
     0
286
     0
287
     3
288
     0
  0
ENDTAB
  0
TABLE
  2
BLOCK_RECORD
  5
1
100
AcDbSymbolTable
 70
     3
  0
BLOCK_RECORD
  5
18
100
AcDbSymbolTableRecord
100
AcDbBlockTableRecord
  2
*MODEL_SPACE
  0
BLOCK_RECORD
  5
15
100
AcDbSymbolTableRecord
100
AcDbBlockTableRecord
  2
*PAPER_SPACE
  0
BLOCK_RECORD
  5
16D
100
AcDbSymbolTableRecord
100
AcDbBlockTableRecord
  2
*D0
  0
BLOCK_RECORD
  5
18A
100
AcDbSymbolTableRecord
100
AcDbBlockTableRecord
  2
*D1
  0
BLOCK_RECORD
  5
198
100
AcDbSymbolTableRecord
100
AcDbBlockTableRecord
  2
*D2
  0
ENDTAB
  0
ENDSEC
  0
SECTION
  2
BLOCKS
  0
BLOCK
  5
19
100
AcDbEntity
  8
0
100
AcDbBlockBegin
  2
*MODEL_SPACE
 70
     0
 10
0.0
 20
0.0
 30
0.0
  3
*MODEL_SPACE
  1

  0
ENDBLK
  5
1A
100
AcDbEntity
  8
0
100
AcDbBlockEnd
  0
BLOCK
  5
16
100
AcDbEntity
 67
     1
  8
0
100
AcDbBlockBegin
  2
*PAPER_SPACE
 70
     0
 10
0.0
 20
0.0
 30
0.0
  3
*PAPER_SPACE
  1

  0
ENDBLK
  5
17
100
AcDbEntity
 67
     1
  8
0
100
AcDbBlockEnd
  0
BLOCK
  5
1BE
100
AcDbEntity
  8
0
100
AcDbBlockBegin
  2
*D0
 70
     1
 10
0.0
 20
0.0
 30
0.0
  3
*D0
  1

  0
LINE
  5
1BF
100
AcDbEntity
  8
0
  6
BYBLOCK
 62
     0
100
AcDbLine
 10
-0.0625
 20
3.858
 30
0.0
 11
-0.730302
 21
3.858
 31
0.0
  0
LINE
  5
1C0
100
AcDbEntity
  8
0
  6
BYBLOCK
 62
     0
100
AcDbLine
 10
0.0305
 20
2.266
 30
0.0
 11
-0.730302
 21
2.266
 31
0.0
  0
LINE
  5
1C1
100
AcDbEntity
  8
0
  6
BYBLOCK
 62
     0
100
AcDbLine
 10
-0.550302
 20
3.678
 30
0.0
 11
-0.550302
 21
3.482
 31
0.0
  0
LINE
  5
1C2
100
AcDbEntity
  8
0
  6
BYBLOCK
 62
     0
100
AcDbLine
 10
-0.550302
 20
2.446
 30
0.0
 11
-0.550302
 21
2.642
 31
0.0
  0
SOLID
  5
1C3
100
AcDbEntity
  8
0
  6
BYBLOCK
 62
     0
100
AcDbTrace
 10
-0.580302
 20
3.678
 30
0.0
 11
-0.520302
 21
3.678
 31
0.0
 12
-0.550302
 22
3.858
 32
0.0
 13
-0.550302
 23
3.858
 33
0.0
  0
SOLID
  5
1C4
100
AcDbEntity
  8
0
  6
BYBLOCK
 62
     0
100
AcDbTrace
 10
-0.580302
 20
2.446
 30
0.0
 11
-0.520302
 21
2.446
 31
0.0
 12
-0.550302
 22
2.266
 32
0.0
 13
-0.550302
 23
2.266
 33
0.0
  0
MTEXT
  5
1C5
100
AcDbEntity
  8
0
  6
BYBLOCK
 62
     0
100
AcDbMText
 10
-0.550302
 20
3.062
 30
0.0
 40
0.06
 41
0.0
 71
     5
 72
     1
  1
\A1;1.5920 [40.44]
 11
0.0
 21
1.0
 31
0.0
  0
POINT
  5
1C6
100
AcDbEntity
  8
DEFPOINTS
  6
BYBLOCK
 62
     0
100
AcDbPoint
 10
0.0
 20
3.858
 30
0.0
  0
POINT
  5
1C7
100
AcDbEntity
  8
DEFPOINTS
  6
BYBLOCK
 62
     0
100
AcDbPoint
 10
0.093
 20
2.266
 30
0.0
  0
POINT
  5
1C8
100
AcDbEntity
  8
DEFPOINTS
  6
BYBLOCK
 62
     0
100
AcDbPoint
 10
-0.550302
 20
2.266
 30
0.0
  0
ENDBLK
  5
1C9
100
AcDbEntity
  8
0
100
AcDbBlockEnd
  0
BLOCK
  5
1B2
100
AcDbEntity
  8
0
100
AcDbBlockBegin
  2
*D1
 70
     1
 10
0.0
 20
0.0
 30
0.0
  3
*D1
  1

  0
LINE
  5
1B3
100
AcDbEntity
  8
0
  6
BYBLOCK
 62
     0
100
AcDbLine
 10
0.0305
 20
2.266
 30
0.0
 11
-0.730302
 21
2.266
 31
0.0
  0
LINE
  5
1B4
100
AcDbEntity
  8
0
  6
BYBLOCK
 62
     0
100
AcDbLine
 10
0.0305
 20
1.084
 30
0.0
 11
-0.730302
 21
1.084
 31
0.0
  0
LINE
  5
1B5
100
AcDbEntity
  8
0
  6
BYBLOCK
 62
     0
100
AcDbLine
 10
-0.550302
 20
2.446
 30
0.0
 11
-0.550302
 21
2.626
 31
0.0
  0
LINE
  5
1B6
100
AcDbEntity
  8
0
  6
BYBLOCK
 62
     0
100
AcDbLine
 10
-0.550302
 20
0.904
 30
0.0
 11
-0.550302
 21
0.724
 31
0.0
  0
SOLID
  5
1B7
100
AcDbEntity
  8
0
  6
BYBLOCK
 62
     0
100
AcDbTrace
 10
-0.580302
 20
2.446
 30
0.0
 11
-0.520302
 21
2.446
 31
0.0
 12
-0.550302
 22
2.266
 32
0.0
 13
-0.550302
 23
2.266
 33
0.0
  0
SOLID
  5
1B8
100
AcDbEntity
  8
0
  6
BYBLOCK
 62
     0
100
AcDbTrace
 10
-0.580302
 20
0.904
 30
0.0
 11
-0.520302
 21
0.904
 31
0.0
 12
-0.550302
 22
1.084
 32
0.0
 13
-0.550302
 23
1.084
 33
0.0
  0
MTEXT
  5
1B9
100
AcDbEntity
  8
0
  6
BYBLOCK
 62
     0
100
AcDbMText
 10
-0.550302
 20
1.675
 30
0.0
 40
0.06
 41
0.0
 71
     5
 72
     1
  1
\A1;1.1820 [30.02]
 11
0.0
 21
1.0
 31
0.0
  0
POINT
  5
1BA
100
AcDbEntity
  8
DEFPOINTS
  6
BYBLOCK
 62
     0
100
AcDbPoint
 10
0.093
 20
2.266
 30
0.0
  0
POINT
  5
1BB
100
AcDbEntity
  8
DEFPOINTS
  6
BYBLOCK
 62
     0
100
AcDbPoint
 10
0.093
 20
1.084
 30
0.0
  0
POINT
  5
1BC
100
AcDbEntity
  8
DEFPOINTS
  6
BYBLOCK
 62
     0
100
AcDbPoint
 10
-0.550302
 20
1.084
 30
0.0
  0
ENDBLK
  5
1BD
100
AcDbEntity
  8
0
100
AcDbBlockEnd
  0
BLOCK
  5
1CA
100
AcDbEntity
  8
0
100
AcDbBlockBegin
  2
*D2
 70
     1
 10
0.0
 20
0.0
 30
0.0
  3
*D2
  1

  0
LINE
  5
1CB
100
AcDbEntity
  8
0
  6
BYBLOCK
 62
     0
100
AcDbLine
 10
0.0305
 20
1.084
 30
0.0
 11
-0.730302
 21
1.084
 31
0.0
  0
LINE
  5
1CC
100
AcDbEntity
  8
0
  6
BYBLOCK
 62
     0
100
AcDbLine
 10
-0.0625
 20
0.0
 30
0.0
 11
-0.730302
 21
0.0
 31
0.0
  0
LINE
  5
1CD
100
AcDbEntity
  8
0
  6
BYBLOCK
 62
     0
100
AcDbLine
 10
-0.550302
 20
1.264
 30
0.0
 11
-0.550302
 21
1.444
 31
0.0
  0
LINE
  5
1CE
100
AcDbEntity
  8
0
  6
BYBLOCK
 62
     0
100
AcDbLine
 10
-0.550302
 20
-0.18
 30
0.0
 11
-0.550302
 21
-0.36
 31
0.0
  0
SOLID
  5
1CF
100
AcDbEntity
  8
0
  6
BYBLOCK
 62
     0
100
AcDbTrace
 10
-0.580302
 20
1.264
 30
0.0
 11
-0.520302
 21
1.264
 31
0.0
 12
-0.550302
 22
1.084
 32
0.0
 13
-0.550302
 23
1.084
 33
0.0
  0
SOLID
  5
1D0
100
AcDbEntity
  8
0
  6
BYBLOCK
 62
     0
100
AcDbTrace
 10
-0.580302
 20
-0.18
 30
0.0
 11
-0.520302
 21
-0.18
 31
0.0
 12
-0.550302
 22
0.0
 32
0.0
 13
-0.550302
 23
0.0
 33
0.0
  0
MTEXT
  5
1D1
100
AcDbEntity
  8
0
  6
BYBLOCK
 62
     0
100
AcDbMText
 10
-0.550302
 20
0.542
 30
0.0
 40
0.06
 41
0.0
 71
     5
 72
     1
  1
\A1;1.0840 [27.53]
 11
0.0
 21
1.0
 31
0.0
  0
POINT
  5
1D2
100
AcDbEntity
  8
DEFPOINTS
  6
BYBLOCK
 62
     0
100
AcDbPoint
 10
0.093
 20
1.084
 30
0.0
  0
POINT
  5
1D3
100
AcDbEntity
  8
DEFPOINTS
  6
BYBLOCK
 62
     0
100
AcDbPoint
 10
0.0
 20
0.0
 30
0.0
  0
POINT
  5
1D4
100
AcDbEntity
  8
DEFPOINTS
  6
BYBLOCK
 62
     0
100
AcDbPoint
 10
-0.550302
 20
0.0
 30
0.0
  0
ENDBLK
  5
1D5
100
AcDbEntity
  8
0
100
AcDbBlockEnd
  0
ENDSEC
  0
SECTION
  2
ENTITIES
  0
POLYLINE
  5
24
100
AcDbEntity
  8
SLKBOT
100
AcDb2dPolyline
 66
     1
 10
0.0
 20
0.0
 30
0.0
  0
VERTEX
  5
25
100
AcDbEntity
  8
SLKBOT
100
AcDbVertex
100
AcDb2dVertex
 10
1.689
 20
1.53
 30
0.0
  0
VERTEX
  5
26
100
AcDbEntity
  8
SLKBOT
100
AcDbVertex
100
AcDb2dVertex
 10
1.76
 20
1.53
 30
0.0
  0
VERTEX
  5
27
100
AcDbEntity
  8
SLKBOT
100
AcDbVertex
100
AcDb2dVertex
 10
1.76
 20
1.633
 30
0.0
  0
VERTEX
  5
28
100
AcDbEntity
  8
SLKBOT
100
AcDbVertex
100
AcDb2dVertex
 10
1.689
 20
1.633
 30
0.0
  0
VERTEX
  5
29
100
AcDbEntity
  8
SLKBOT
100
AcDbVertex
100
AcDb2dVertex
 10
1.689
 20
1.53
 30
0.0
  0
SEQEND
  5
2A
100
AcDbEntity
  8
SLKBOT
  0
TEXT
  5
2B
100
AcDbEntity
  8
REFDBT
100
AcDbText
 10
1.67805
 20
1.555875
 30
0.0
 40
0.03825
  1
C2
 41
0.88
 71
     2
 72
     4
 11
1.65
 21
1.575
 31
0.0
100
AcDbText
  0
POLYLINE
  5
2C
100
AcDbEntity
  8
SLKBOT
100
AcDb2dPolyline
 66
     1
 10
0.0
 20
0.0
 30
0.0
  0
VERTEX
  5
2D
100
AcDbEntity
  8
SLKBOT
100
AcDbVertex
100
AcDb2dVertex
 10
1.286
 20
2.37
 30
0.0
  0
VERTEX
  5
2E
100
AcDbEntity
  8
SLKBOT
100
AcDbVertex
100
AcDb2dVertex
 10
1.215
 20
2.37
 30
0.0
  0
VERTEX
  5
2F
100
AcDbEntity
  8
SLKBOT
100
AcDbVertex
100
AcDb2dVertex
 10
1.215
 20
2.267
 30
0.0
  0
VERTEX
  5
30
100
AcDbEntity
  8
SLKBOT
100
AcDbVertex
100
AcDb2dVertex
 10
1.286
 20
2.267
 30
0.0
  0
VERTEX
  5
31
100
AcDbEntity
  8
SLKBOT
100
AcDbVertex
100
AcDb2dVertex
 10
1.286
 20
2.37
 30
0.0
  0
SEQEND
  5
32
100
AcDbEntity
  8
SLKBOT
  0
TEXT
  5
33
100
AcDbEntity
  8
REFDBT
100
AcDbText
 10
1.27244
 20
2.380875
 30
0.0
 40
0.03825
  1
C1
 41
0.88
 71
     2
 72
     4
 11
1.25
 21
2.4
 31
0.0
100
AcDbText
  0
POLYLINE
  5
34
100
AcDbEntity
  8
SLKBOT
100
AcDb2dPolyline
 66
     1
 10
0.0
 20
0.0
 30
0.0
  0
VERTEX
  5
35
100
AcDbEntity
  8
SLKBOT
100
AcDbVertex
100
AcDb2dVertex
 10
2.636
 20
2.37
 30
0.0
  0
VERTEX
  5
36
100
AcDbEntity
  8
SLKBOT
100
AcDbVertex
100
AcDb2dVertex
 10
2.565
 20
2.37
 30
0.0
  0
VERTEX
  5
37
100
AcDbEntity
  8
SLKBOT
100
AcDbVertex
100
AcDb2dVertex
 10
2.565
 20
2.267
 30
0.0
  0
VERTEX
  5
38
100
AcDbEntity
  8
SLKBOT
100
AcDbVertex
100
AcDb2dVertex
 10
2.636
 20
2.267
 30
0.0
  0
VERTEX
  5
39
100
AcDbEntity
  8
SLKBOT
100
AcDbVertex
100
AcDb2dVertex
 10
2.636
 20
2.37
 30
0.0
  0
SEQEND
  5
3A
100
AcDbEntity
  8
SLKBOT
  0
TEXT
  5
3B
100
AcDbEntity
  8
REFDBT
100
AcDbText
 10
2.62805
 20
2.380875
 30
0.0
 40
0.03825
  1
C3
 41
0.88
 71
     2
 72
     4
 11
2.6
 21
2.4
 31
0.0
100
AcDbText
  0
POLYLINE
  5
3C
100
AcDbEntity
  8
SLKBOT
100
AcDb2dPolyline
 66
     1
 10
0.0
 20
0.0
 30
0.0
  0
VERTEX
  5
3D
100
AcDbEntity
  8
SLKBOT
100
AcDbVertex
100
AcDb2dVertex
 10
2.564
 20
1.53
 30
0.0
  0
VERTEX
  5
3E
100
AcDbEntity
  8
SLKBOT
100
AcDbVertex
100
AcDb2dVertex
 10
2.635
 20
1.53
 30
0.0
  0
VERTEX
  5
3F
100
AcDbEntity
  8
SLKBOT
100
AcDbVertex
100
AcDb2dVertex
 10
2.635
 20
1.633
 30
0.0
  0
VERTEX
  5
40
100
AcDbEntity
  8
SLKBOT
100
AcDbVertex
100
AcDb2dVertex
 10
2.564
 20
1.633
 30
0.0
  0
VERTEX
  5
41
100
AcDbEntity
  8
SLKBOT
100
AcDbVertex
100
AcDb2dVertex
 10
2.564
 20
1.53
 30
0.0
  0
SEQEND
  5
42
100
AcDbEntity
  8
SLKBOT
  0
TEXT
  5
43
100
AcDbEntity
  8
REFDBT
100
AcDbText
 10
2.62805
 20
1.655875
 30
0.0
 40
0.03825
  1
C4
 41
0.88
 71
     2
 72
     4
 11
2.6
 21
1.675
 31
0.0
100
AcDbText
  0
POLYLINE
  5
44
100
AcDbEntity
  8
SLKBOT
100
AcDb2dPolyline
 66
     1
 10
0.0
 20
0.0
 30
0.0
  0
VERTEX
  5
45
100
AcDbEntity
  8
SLKBOT
100
AcDbVertex
100
AcDb2dVertex
 10
6.261
 20
2.37
 30
0.0
  0
VERTEX
  5
46
100
AcDbEntity
  8
SLKBOT
100
AcDbVertex
100
AcDb2dVertex
 10
6.19
 20
2.37
 30
0.0
  0
VERTEX
  5
47
100
AcDbEntity
  8
SLKBOT
100
AcDbVertex
100
AcDb2dVertex
 10
6.19
 20
2.267
 30
0.0
  0
VERTEX
  5
48
100
AcDbEntity
  8
SLKBOT
100
AcDbVertex
100
AcDb2dVertex
 10
6.261
 20
2.267
 30
0.0
  0
VERTEX
  5
49
100
AcDbEntity
  8
SLKBOT
100
AcDbVertex
100
AcDb2dVertex
 10
6.261
 20
2.37
 30
0.0
  0
SEQEND
  5
4A
100
AcDbEntity
  8
SLKBOT
  0
TEXT
  5
4B
100
AcDbEntity
  8
REFDBT
100
AcDbText
 10
6.25305
 20
2.380875
 30
0.0
 40
0.03825
  1
C5
 41
0.88
 71
     2
 72
     4
 11
6.225
 21
2.4
 31
0.0
100
AcDbText
  0
POLYLINE
  5
4C
100
AcDbEntity
  8
SLKBOT
100
AcDb2dPolyline
 66
     1
 10
0.0
 20
0.0
 30
0.0
  0
VERTEX
  5
4D
100
AcDbEntity
  8
SLKBOT
100
AcDbVertex
100
AcDb2dVertex
 10
6.189
 20
1.53
 30
0.0
  0
VERTEX
  5
4E
100
AcDbEntity
  8
SLKBOT
100
AcDbVertex
100
AcDb2dVertex
 10
6.26
 20
1.53
 30
0.0
  0
VERTEX
  5
4F
100
AcDbEntity
  8
SLKBOT
100
AcDbVertex
100
AcDb2dVertex
 10
6.26
 20
1.633
 30
0.0
  0
VERTEX
  5
50
100
AcDbEntity
  8
SLKBOT
100
AcDbVertex
100
AcDb2dVertex
 10
6.189
 20
1.633
 30
0.0
  0
VERTEX
  5
51
100
AcDbEntity
  8
SLKBOT
100
AcDbVertex
100
AcDb2dVertex
 10
6.189
 20
1.53
 30
0.0
  0
SEQEND
  5
52
100
AcDbEntity
  8
SLKBOT
  0
TEXT
  5
53
100
AcDbEntity
  8
REFDBT
100
AcDbText
 10
6.25305
 20
1.655875
 30
0.0
 40
0.03825
  1
C6
 41
0.88
 71
     2
 72
     4
 11
6.225
 21
1.675
 31
0.0
100
AcDbText
  0
POLYLINE
  5
54
100
AcDbEntity
  8
SLKBOT
100
AcDb2dPolyline
 66
     1
 10
0.0
 20
0.0
 30
0.0
  0
VERTEX
  5
55
100
AcDbEntity
  8
SLKBOT
100
AcDbVertex
100
AcDb2dVertex
 10
7.611
 20
2.37
 30
0.0
  0
VERTEX
  5
56
100
AcDbEntity
  8
SLKBOT
100
AcDbVertex
100
AcDb2dVertex
 10
7.54
 20
2.37
 30
0.0
  0
VERTEX
  5
57
100
AcDbEntity
  8
SLKBOT
100
AcDbVertex
100
AcDb2dVertex
 10
7.54
 20
2.267
 30
0.0
  0
VERTEX
  5
58
100
AcDbEntity
  8
SLKBOT
100
AcDbVertex
100
AcDb2dVertex
 10
7.611
 20
2.267
 30
0.0
  0
VERTEX
  5
59
100
AcDbEntity
  8
SLKBOT
100
AcDbVertex
100
AcDb2dVertex
 10
7.611
 20
2.37
 30
0.0
  0
SEQEND
  5
5A
100
AcDbEntity
  8
SLKBOT
  0
TEXT
  5
5B
100
AcDbEntity
  8
REFDBT
100
AcDbText
 10
7.60305
 20
2.380875
 30
0.0
 40
0.03825
  1
C7
 41
0.88
 71
     2
 72
     4
 11
7.575
 21
2.4
 31
0.0
100
AcDbText
  0
POLYLINE
  5
5C
100
AcDbEntity
  8
SLKBOT
100
AcDb2dPolyline
 66
     1
 10
0.0
 20
0.0
 30
0.0
  0
VERTEX
  5
5D
100
AcDbEntity
  8
SLKBOT
100
AcDbVertex
100
AcDb2dVertex
 10
7.539
 20
1.53
 30
0.0
  0
VERTEX
  5
5E
100
AcDbEntity
  8
SLKBOT
100
AcDbVertex
100
AcDb2dVertex
 10
7.61
 20
1.53
 30
0.0
  0
VERTEX
  5
5F
100
AcDbEntity
  8
SLKBOT
100
AcDbVertex
100
AcDb2dVertex
 10
7.61
 20
1.633
 30
0.0
  0
VERTEX
  5
60
100
AcDbEntity
  8
SLKBOT
100
AcDbVertex
100
AcDb2dVertex
 10
7.539
 20
1.633
 30
0.0
  0
VERTEX
  5
61
100
AcDbEntity
  8
SLKBOT
100
AcDbVertex
100
AcDb2dVertex
 10
7.539
 20
1.53
 30
0.0
  0
SEQEND
  5
62
100
AcDbEntity
  8
SLKBOT
  0
TEXT
  5
63
100
AcDbEntity
  8
REFDBT
100
AcDbText
 10
7.60305
 20
1.655875
 30
0.0
 40
0.03825
  1
C8
 41
0.88
 71
     2
 72
     4
 11
7.575
 21
1.675
 31
0.0
100
AcDbText
  0
POLYLINE
  5
64
100
AcDbEntity
  8
SLKBOT
100
AcDb2dPolyline
 66
     1
 10
0.0
 20
0.0
 30
0.0
  0
VERTEX
  5
65
100
AcDbEntity
  8
SLKBOT
100
AcDbVertex
100
AcDb2dVertex
 10
1.761
 20
2.045
 30
0.0
  0
VERTEX
  5
66
100
AcDbEntity
  8
SLKBOT
100
AcDbVertex
100
AcDb2dVertex
 10
1.69
 20
2.045
 30
0.0
  0
VERTEX
  5
67
100
AcDbEntity
  8
SLKBOT
100
AcDbVertex
100
AcDb2dVertex
 10
1.69
 20
1.942
 30
0.0
  0
VERTEX
  5
68
100
AcDbEntity
  8
SLKBOT
100
AcDbVertex
100
AcDb2dVertex
 10
1.761
 20
1.942
 30
0.0
  0
VERTEX
  5
69
100
AcDbEntity
  8
SLKBOT
100
AcDbVertex
100
AcDb2dVertex
 10
1.761
 20
2.045
 30
0.0
  0
SEQEND
  5
6A
100
AcDbEntity
  8
SLKBOT
  0
TEXT
  5
6B
100
AcDbEntity
  8
REFDBT
100
AcDbText
 10
1.75305
 20
2.055875
 30
0.0
 40
0.03825
  1
C9
 41
0.88
 71
     2
 72
     4
 11
1.725
 21
2.075
 31
0.0
100
AcDbText
  0
POLYLINE
  5
6C
100
AcDbEntity
  8
SLKBOT
100
AcDb2dPolyline
 66
     1
 10
0.0
 20
0.0
 30
0.0
  0
VERTEX
  5
6D
100
AcDbEntity
  8
SLKBOT
100
AcDbVertex
100
AcDb2dVertex
 10
1.214
 20
1.53
 30
0.0
  0
VERTEX
  5
6E
100
AcDbEntity
  8
SLKBOT
100
AcDbVertex
100
AcDb2dVertex
 10
1.285
 20
1.53
 30
0.0
  0
VERTEX
  5
6F
100
AcDbEntity
  8
SLKBOT
100
AcDbVertex
100
AcDb2dVertex
 10
1.285
 20
1.633
 30
0.0
  0
VERTEX
  5
70
100
AcDbEntity
  8
SLKBOT
100
AcDbVertex
100
AcDb2dVertex
 10
1.214
 20
1.633
 30
0.0
  0
VERTEX
  5
71
100
AcDbEntity
  8
SLKBOT
100
AcDbVertex
100
AcDb2dVertex
 10
1.214
 20
1.53
 30
0.0
  0
SEQEND
  5
72
100
AcDbEntity
  8
SLKBOT
  0
TEXT
  5
73
100
AcDbEntity
  8
REFDBT
100
AcDbText
 10
1.286465
 20
1.655875
 30
0.0
 40
0.03825
  1
C10
 41
0.88
 71
     2
 72
     4
 11
1.25
 21
1.675
 31
0.0
100
AcDbText
  0
POLYLINE
  5
74
100
AcDbEntity
  8
SLKBOT
100
AcDb2dPolyline
 66
     1
 10
0.0
 20
0.0
 30
0.0
  0
VERTEX
  5
75
100
AcDbEntity
  8
SLKBOT
100
AcDbVertex
100
AcDb2dVertex
 10
2.211
 20
2.37
 30
0.0
  0
VERTEX
  5
76
100
AcDbEntity
  8
SLKBOT
100
AcDbVertex
100
AcDb2dVertex
 10
2.14
 20
2.37
 30
0.0
  0
VERTEX
  5
77
100
AcDbEntity
  8
SLKBOT
100
AcDbVertex
100
AcDb2dVertex
 10
2.14
 20
2.267
 30
0.0
  0
VERTEX
  5
78
100
AcDbEntity
  8
SLKBOT
100
AcDbVertex
100
AcDb2dVertex
 10
2.211
 20
2.267
 30
0.0
  0
VERTEX
  5
79
100
AcDbEntity
  8
SLKBOT
100
AcDbVertex
100
AcDb2dVertex
 10
2.211
 20
2.37
 30
0.0
  0
SEQEND
  5
7A
100
AcDbEntity
  8
SLKBOT
  0
TEXT
  5
7B
100
AcDbEntity
  8
REFDBT
100
AcDbText
 10
2.20866
 20
2.380875
 30
0.0
 40
0.03825
  1
C11
 41
0.88
 71
     2
 72
     4
 11
2.175
 21
2.4
 31
0.0
100
AcDbText
  0
POLYLINE
  5
7C
100
AcDbEntity
  8
SLKBOT
100
AcDb2dPolyline
 66
     1
 10
0.0
 20
0.0
 30
0.0
  0
VERTEX
  5
7D
100
AcDbEntity
  8
SLKBOT
100
AcDbVertex
100
AcDb2dVertex
 10
2.139
 20
1.53
 30
0.0
  0
VERTEX
  5
7E
100
AcDbEntity
  8
SLKBOT
100
AcDbVertex
100
AcDb2dVertex
 10
2.21
 20
1.53
 30
0.0
  0
VERTEX
  5
7F
100
AcDbEntity
  8
SLKBOT
100
AcDbVertex
100
AcDb2dVertex
 10
2.21
 20
1.633
 30
0.0
  0
VERTEX
  5
80
100
AcDbEntity
  8
SLKBOT
100
AcDbVertex
100
AcDb2dVertex
 10
2.139
 20
1.633
 30
0.0
  0
VERTEX
  5
81
100
AcDbEntity
  8
SLKBOT
100
AcDbVertex
100
AcDb2dVertex
 10
2.139
 20
1.53
 30
0.0
  0
SEQEND
  5
82
100
AcDbEntity
  8
SLKBOT
  0
TEXT
  5
83
100
AcDbEntity
  8
REFDBT
100
AcDbText
 10
2.21427
 20
1.655875
 30
0.0
 40
0.03825
  1
C12
 41
0.88
 71
     2
 72
     4
 11
2.175
 21
1.675
 31
0.0
100
AcDbText
  0
POLYLINE
  5
84
100
AcDbEntity
  8
SLKBOT
100
AcDb2dPolyline
 66
     1
 10
0.0
 20
0.0
 30
0.0
  0
VERTEX
  5
85
100
AcDbEntity
  8
SLKBOT
100
AcDbVertex
100
AcDb2dVertex
 10
3.111
 20
2.045
 30
0.0
  0
VERTEX
  5
86
100
AcDbEntity
  8
SLKBOT
100
AcDbVertex
100
AcDb2dVertex
 10
3.04
 20
2.045
 30
0.0
  0
VERTEX
  5
87
100
AcDbEntity
  8
SLKBOT
100
AcDbVertex
100
AcDb2dVertex
 10
3.04
 20
1.942
 30
0.0
  0
VERTEX
  5
88
100
AcDbEntity
  8
SLKBOT
100
AcDbVertex
100
AcDb2dVertex
 10
3.111
 20
1.942
 30
0.0
  0
VERTEX
  5
89
100
AcDbEntity
  8
SLKBOT
100
AcDbVertex
100
AcDb2dVertex
 10
3.111
 20
2.045
 30
0.0
  0
SEQEND
  5
8A
100
AcDbEntity
  8
SLKBOT
  0
TEXT
  5
8B
100
AcDbEntity
  8
REFDBT
100
AcDbText
 10
3.11427
 20
2.055875
 30
0.0
 40
0.03825
  1
C13
 41
0.88
 71
     2
 72
     4
 11
3.075
 21
2.075
 31
0.0
100
AcDbText
  0
POLYLINE
  5
8C
100
AcDbEntity
  8
SLKBOT
100
AcDb2dPolyline
 66
     1
 10
0.0
 20
0.0
 30
0.0
  0
VERTEX
  5
8D
100
AcDbEntity
  8
SLKBOT
100
AcDbVertex
100
AcDb2dVertex
 10
3.039
 20
1.53
 30
0.0
  0
VERTEX
  5
8E
100
AcDbEntity
  8
SLKBOT
100
AcDbVertex
100
AcDb2dVertex
 10
3.11
 20
1.53
 30
0.0
  0
VERTEX
  5
8F
100
AcDbEntity
  8
SLKBOT
100
AcDbVertex
100
AcDb2dVertex
 10
3.11
 20
1.633
 30
0.0
  0
VERTEX
  5
90
100
AcDbEntity
  8
SLKBOT
100
AcDbVertex
100
AcDb2dVertex
 10
3.039
 20
1.633
 30
0.0
  0
VERTEX
  5
91
100
AcDbEntity
  8
SLKBOT
100
AcDbVertex
100
AcDb2dVertex
 10
3.039
 20
1.53
 30
0.0
  0
SEQEND
  5
92
100
AcDbEntity
  8
SLKBOT
  0
TEXT
  5
93
100
AcDbEntity
  8
REFDBT
100
AcDbText
 10
3.01427
 20
1.555875
 30
0.0
 40
0.03825
  1
C14
 41
0.88
 71
     2
 72
     4
 11
2.975
 21
1.575
 31
0.0
100
AcDbText
  0
POLYLINE
  5
94
100
AcDbEntity
  8
SLKBOT
100
AcDb2dPolyline
 66
     1
 10
0.0
 20
0.0
 30
0.0
  0
VERTEX
  5
95
100
AcDbEntity
  8
SLKBOT
100
AcDbVertex
100
AcDb2dVertex
 10
3.561
 20
2.37
 30
0.0
  0
VERTEX
  5
96
100
AcDbEntity
  8
SLKBOT
100
AcDbVertex
100
AcDb2dVertex
 10
3.49
 20
2.37
 30
0.0
  0
VERTEX
  5
97
100
AcDbEntity
  8
SLKBOT
100
AcDbVertex
100
AcDb2dVertex
 10
3.49
 20
2.267
 30
0.0
  0
VERTEX
  5
98
100
AcDbEntity
  8
SLKBOT
100
AcDbVertex
100
AcDb2dVertex
 10
3.561
 20
2.267
 30
0.0
  0
VERTEX
  5
99
100
AcDbEntity
  8
SLKBOT
100
AcDbVertex
100
AcDb2dVertex
 10
3.561
 20
2.37
 30
0.0
  0
SEQEND
  5
9A
100
AcDbEntity
  8
SLKBOT
  0
TEXT
  5
9B
100
AcDbEntity
  8
REFDBT
100
AcDbText
 10
3.56427
 20
2.380875
 30
0.0
 40
0.03825
  1
C15
 41
0.88
 71
     2
 72
     4
 11
3.525
 21
2.4
 31
0.0
100
AcDbText
  0
POLYLINE
  5
9C
100
AcDbEntity
  8
SLKBOT
100
AcDb2dPolyline
 66
     1
 10
0.0
 20
0.0
 30
0.0
  0
VERTEX
  5
9D
100
AcDbEntity
  8
SLKBOT
100
AcDbVertex
100
AcDb2dVertex
 10
3.489
 20
1.53
 30
0.0
  0
VERTEX
  5
9E
100
AcDbEntity
  8
SLKBOT
100
AcDbVertex
100
AcDb2dVertex
 10
3.56
 20
1.53
 30
0.0
  0
VERTEX
  5
9F
100
AcDbEntity
  8
SLKBOT
100
AcDbVertex
100
AcDb2dVertex
 10
3.56
 20
1.633
 30
0.0
  0
VERTEX
  5
A0
100
AcDbEntity
  8
SLKBOT
100
AcDbVertex
100
AcDb2dVertex
 10
3.489
 20
1.633
 30
0.0
  0
VERTEX
  5
A1
100
AcDbEntity
  8
SLKBOT
100
AcDbVertex
100
AcDb2dVertex
 10
3.489
 20
1.53
 30
0.0
  0
SEQEND
  5
A2
100
AcDbEntity
  8
SLKBOT
  0
TEXT
  5
A3
100
AcDbEntity
  8
REFDBT
100
AcDbText
 10
3.56427
 20
1.655875
 30
0.0
 40
0.03825
  1
C16
 41
0.88
 71
     2
 72
     4
 11
3.525
 21
1.675
 31
0.0
100
AcDbText
  0
POLYLINE
  5
A4
100
AcDbEntity
  8
SLKBOT
100
AcDb2dPolyline
 66
     1
 10
0.0
 20
0.0
 30
0.0
  0
VERTEX
  5
A5
100
AcDbEntity
  8
SLKBOT
100
AcDbVertex
100
AcDb2dVertex
 10
6.736
 20
2.045
 30
0.0
  0
VERTEX
  5
A6
100
AcDbEntity
  8
SLKBOT
100
AcDbVertex
100
AcDb2dVertex
 10
6.665
 20
2.045
 30
0.0
  0
VERTEX
  5
A7
100
AcDbEntity
  8
SLKBOT
100
AcDbVertex
100
AcDb2dVertex
 10
6.665
 20
1.942
 30
0.0
  0
VERTEX
  5
A8
100
AcDbEntity
  8
SLKBOT
100
AcDbVertex
100
AcDb2dVertex
 10
6.736
 20
1.942
 30
0.0
  0
VERTEX
  5
A9
100
AcDbEntity
  8
SLKBOT
100
AcDbVertex
100
AcDb2dVertex
 10
6.736
 20
2.045
 30
0.0
  0
SEQEND
  5
AA
100
AcDbEntity
  8
SLKBOT
  0
TEXT
  5
AB
100
AcDbEntity
  8
REFDBT
100
AcDbText
 10
6.63927
 20
1.980875
 30
0.0
 40
0.03825
  1
C17
 41
0.88
 71
     2
 72
     4
 11
6.6
 21
2.0
 31
0.0
100
AcDbText
  0
POLYLINE
  5
AC
100
AcDbEntity
  8
SLKBOT
100
AcDb2dPolyline
 66
     1
 10
0.0
 20
0.0
 30
0.0
  0
VERTEX
  5
AD
100
AcDbEntity
  8
SLKBOT
100
AcDbVertex
100
AcDb2dVertex
 10
6.664
 20
1.53
 30
0.0
  0
VERTEX
  5
AE
100
AcDbEntity
  8
SLKBOT
100
AcDbVertex
100
AcDb2dVertex
 10
6.735
 20
1.53
 30
0.0
  0
VERTEX
  5
AF
100
AcDbEntity
  8
SLKBOT
100
AcDbVertex
100
AcDb2dVertex
 10
6.735
 20
1.633
 30
0.0
  0
VERTEX
  5
B0
100
AcDbEntity
  8
SLKBOT
100
AcDbVertex
100
AcDb2dVertex
 10
6.664
 20
1.633
 30
0.0
  0
VERTEX
  5
B1
100
AcDbEntity
  8
SLKBOT
100
AcDbVertex
100
AcDb2dVertex
 10
6.664
 20
1.53
 30
0.0
  0
SEQEND
  5
B2
100
AcDbEntity
  8
SLKBOT
  0
TEXT
  5
B3
100
AcDbEntity
  8
REFDBT
100
AcDbText
 10
6.63927
 20
1.555875
 30
0.0
 40
0.03825
  1
C18
 41
0.88
 71
     2
 72
     4
 11
6.6
 21
1.575
 31
0.0
100
AcDbText
  0
POLYLINE
  5
B4
100
AcDbEntity
  8
SLKBOT
100
AcDb2dPolyline
 66
     1
 10
0.0
 20
0.0
 30
0.0
  0
VERTEX
  5
B5
100
AcDbEntity
  8
SLKBOT
100
AcDbVertex
100
AcDb2dVertex
 10
7.186
 20
2.37
 30
0.0
  0
VERTEX
  5
B6
100
AcDbEntity
  8
SLKBOT
100
AcDbVertex
100
AcDb2dVertex
 10
7.115
 20
2.37
 30
0.0
  0
VERTEX
  5
B7
100
AcDbEntity
  8
SLKBOT
100
AcDbVertex
100
AcDb2dVertex
 10
7.115
 20
2.267
 30
0.0
  0
VERTEX
  5
B8
100
AcDbEntity
  8
SLKBOT
100
AcDbVertex
100
AcDb2dVertex
 10
7.186
 20
2.267
 30
0.0
  0
VERTEX
  5
B9
100
AcDbEntity
  8
SLKBOT
100
AcDbVertex
100
AcDb2dVertex
 10
7.186
 20
2.37
 30
0.0
  0
SEQEND
  5
BA
100
AcDbEntity
  8
SLKBOT
  0
TEXT
  5
BB
100
AcDbEntity
  8
REFDBT
100
AcDbText
 10
7.18927
 20
2.380875
 30
0.0
 40
0.03825
  1
C19
 41
0.88
 71
     2
 72
     4
 11
7.15
 21
2.4
 31
0.0
100
AcDbText
  0
POLYLINE
  5
BC
100
AcDbEntity
  8
SLKBOT
100
AcDb2dPolyline
 66
     1
 10
0.0
 20
0.0
 30
0.0
  0
VERTEX
  5
BD
100
AcDbEntity
  8
SLKBOT
100
AcDbVertex
100
AcDb2dVertex
 10
7.114
 20
1.53
 30
0.0
  0
VERTEX
  5
BE
100
AcDbEntity
  8
SLKBOT
100
AcDbVertex
100
AcDb2dVertex
 10
7.185
 20
1.53
 30
0.0
  0
VERTEX
  5
BF
100
AcDbEntity
  8
SLKBOT
100
AcDbVertex
100
AcDb2dVertex
 10
7.185
 20
1.633
 30
0.0
  0
VERTEX
  5
C0
100
AcDbEntity
  8
SLKBOT
100
AcDbVertex
100
AcDb2dVertex
 10
7.114
 20
1.633
 30
0.0
  0
VERTEX
  5
C1
100
AcDbEntity
  8
SLKBOT
100
AcDbVertex
100
AcDb2dVertex
 10
7.114
 20
1.53
 30
0.0
  0
SEQEND
  5
C2
100
AcDbEntity
  8
SLKBOT
  0
TEXT
  5
C3
100
AcDbEntity
  8
REFDBT
100
AcDbText
 10
7.192075
 20
1.655875
 30
0.0
 40
0.03825
  1
C20
 41
0.88
 71
     2
 72
     4
 11
7.15
 21
1.675
 31
0.0
100
AcDbText
  0
POLYLINE
  5
C4
100
AcDbEntity
  8
SLKBOT
100
AcDb2dPolyline
 66
     1
 10
0.0
 20
0.0
 30
0.0
  0
VERTEX
  5
C5
100
AcDbEntity
  8
SLKBOT
100
AcDbVertex
100
AcDb2dVertex
 10
8.086
 20
2.045
 30
0.0
  0
VERTEX
  5
C6
100
AcDbEntity
  8
SLKBOT
100
AcDbVertex
100
AcDb2dVertex
 10
8.015
 20
2.045
 30
0.0
  0
VERTEX
  5
C7
100
AcDbEntity
  8
SLKBOT
100
AcDbVertex
100
AcDb2dVertex
 10
8.015
 20
1.942
 30
0.0
  0
VERTEX
  5
C8
100
AcDbEntity
  8
SLKBOT
100
AcDbVertex
100
AcDb2dVertex
 10
8.086
 20
1.942
 30
0.0
  0
VERTEX
  5
C9
100
AcDbEntity
  8
SLKBOT
100
AcDbVertex
100
AcDb2dVertex
 10
8.086
 20
2.045
 30
0.0
  0
SEQEND
  5
CA
100
AcDbEntity
  8
SLKBOT
  0
TEXT
  5
CB
100
AcDbEntity
  8
REFDBT
100
AcDbText
 10
8.08927
 20
2.055875
 30
0.0
 40
0.03825
  1
C21
 41
0.88
 71
     2
 72
     4
 11
8.05
 21
2.075
 31
0.0
100
AcDbText
  0
POLYLINE
  5
CC
100
AcDbEntity
  8
SLKBOT
100
AcDb2dPolyline
 66
     1
 10
0.0
 20
0.0
 30
0.0
  0
VERTEX
  5
CD
100
AcDbEntity
  8
SLKBOT
100
AcDbVertex
100
AcDb2dVertex
 10
8.014
 20
1.53
 30
0.0
  0
VERTEX
  5
CE
100
AcDbEntity
  8
SLKBOT
100
AcDbVertex
100
AcDb2dVertex
 10
8.085
 20
1.53
 30
0.0
  0
VERTEX
  5
CF
100
AcDbEntity
  8
SLKBOT
100
AcDbVertex
100
AcDb2dVertex
 10
8.085
 20
1.633
 30
0.0
  0
VERTEX
  5
D0
100
AcDbEntity
  8
SLKBOT
100
AcDbVertex
100
AcDb2dVertex
 10
8.014
 20
1.633
 30
0.0
  0
VERTEX
  5
D1
100
AcDbEntity
  8
SLKBOT
100
AcDbVertex
100
AcDb2dVertex
 10
8.014
 20
1.53
 30
0.0
  0
SEQEND
  5
D2
100
AcDbEntity
  8
SLKBOT
  0
TEXT
  5
D3
100
AcDbEntity
  8
REFDBT
100
AcDbText
 10
7.99488
 20
1.555875
 30
0.0
 40
0.03825
  1
C22
 41
0.88
 71
     2
 72
     4
 11
7.95
 21
1.575
 31
0.0
100
AcDbText
  0
POLYLINE
  5
D4
100
AcDbEntity
  8
SLKBOT
100
AcDb2dPolyline
 66
     1
 10
0.0
 20
0.0
 30
0.0
  0
VERTEX
  5
D5
100
AcDbEntity
  8
SLKBOT
100
AcDbVertex
100
AcDb2dVertex
 10
8.536
 20
2.37
 30
0.0
  0
VERTEX
  5
D6
100
AcDbEntity
  8
SLKBOT
100
AcDbVertex
100
AcDb2dVertex
 10
8.465
 20
2.37
 30
0.0
  0
VERTEX
  5
D7
100
AcDbEntity
  8
SLKBOT
100
AcDbVertex
100
AcDb2dVertex
 10
8.465
 20
2.267
 30
0.0
  0
VERTEX
  5
D8
100
AcDbEntity
  8
SLKBOT
100
AcDbVertex
100
AcDb2dVertex
 10
8.536
 20
2.267
 30
0.0
  0
VERTEX
  5
D9
100
AcDbEntity
  8
SLKBOT
100
AcDbVertex
100
AcDb2dVertex
 10
8.536
 20
2.37
 30
0.0
  0
SEQEND
  5
DA
100
AcDbEntity
  8
SLKBOT
  0
TEXT
  5
DB
100
AcDbEntity
  8
REFDBT
100
AcDbText
 10
8.54488
 20
2.380875
 30
0.0
 40
0.03825
  1
C23
 41
0.88
 71
     2
 72
     4
 11
8.5
 21
2.4
 31
0.0
100
AcDbText
  0
POLYLINE
  5
DC
100
AcDbEntity
  8
SLKBOT
100
AcDb2dPolyline
 66
     1
 10
0.0
 20
0.0
 30
0.0
  0
VERTEX
  5
DD
100
AcDbEntity
  8
SLKBOT
100
AcDbVertex
100
AcDb2dVertex
 10
8.464
 20
1.53
 30
0.0
  0
VERTEX
  5
DE
100
AcDbEntity
  8
SLKBOT
100
AcDbVertex
100
AcDb2dVertex
 10
8.535
 20
1.53
 30
0.0
  0
VERTEX
  5
DF
100
AcDbEntity
  8
SLKBOT
100
AcDbVertex
100
AcDb2dVertex
 10
8.535
 20
1.633
 30
0.0
  0
VERTEX
  5
E0
100
AcDbEntity
  8
SLKBOT
100
AcDbVertex
100
AcDb2dVertex
 10
8.464
 20
1.633
 30
0.0
  0
VERTEX
  5
E1
100
AcDbEntity
  8
SLKBOT
100
AcDbVertex
100
AcDb2dVertex
 10
8.464
 20
1.53
 30
0.0
  0
SEQEND
  5
E2
100
AcDbEntity
  8
SLKBOT
  0
TEXT
  5
E3
100
AcDbEntity
  8
REFDBT
100
AcDbText
 10
8.54488
 20
1.655875
 30
0.0
 40
0.03825
  1
C24
 41
0.88
 71
     2
 72
     4
 11
8.5
 21
1.675
 31
0.0
100
AcDbText
  0
POLYLINE
  5
E4
100
AcDbEntity
  8
SLKBOT
100
AcDb2dPolyline
 66
     1
 10
0.0
 20
0.0
 30
0.0
 70
     1
  0
VERTEX
  5
E5
100
AcDbEntity
  8
SLKBOT
100
AcDbVertex
100
AcDb2dVertex
 10
0.078
 20
2.335
 30
0.0
  0
VERTEX
  5
E6
100
AcDbEntity
  8
SLKBOT
100
AcDbVertex
100
AcDb2dVertex
 10
0.078
 20
2.701
 30
0.0
  0
VERTEX
  5
E7
100
AcDbEntity
  8
SLKBOT
100
AcDbVertex
100
AcDb2dVertex
 10
0.272
 20
2.701
 30
0.0
  0
VERTEX
  5
E8
100
AcDbEntity
  8
SLKBOT
100
AcDbVertex
100
AcDb2dVertex
 10
0.272
 20
2.335
 30
0.0
  0
VERTEX
  5
E9
100
AcDbEntity
  8
SLKBOT
100
AcDbVertex
100
AcDb2dVertex
 10
0.078
 20
2.335
 30
0.0
  0
SEQEND
  5
EA
100
AcDbEntity
  8
SLKBOT
  0
TEXT
  5
EB
100
AcDbEntity
  8
REFDBT
100
AcDbText
 10
0.14488
 20
2.730875
 30
0.0
 40
0.03825
  1
C45
 41
0.88
 71
     2
 72
     4
 11
0.1
 21
2.75
 31
0.0
100
AcDbText
  0
POLYLINE
  5
EC
100
AcDbEntity
  8
SLKBOT
100
AcDb2dPolyline
 66
     1
 10
0.0
 20
0.0
 30
0.0
 70
     1
  0
VERTEX
  5
ED
100
AcDbEntity
  8
SLKBOT
100
AcDbVertex
100
AcDb2dVertex
 10
0.315
 20
2.3
 30
0.0
  0
VERTEX
  5
EE
100
AcDbEntity
  8
SLKBOT
100
AcDbVertex
100
AcDb2dVertex
 10
0.315
 20
2.502
 30
0.0
  0
VERTEX
  5
EF
100
AcDbEntity
  8
SLKBOT
100
AcDbVertex
100
AcDb2dVertex
 10
0.535
 20
2.502
 30
0.0
  0
VERTEX
  5
F0
100
AcDbEntity
  8
SLKBOT
100
AcDbVertex
100
AcDb2dVertex
 10
0.535
 20
2.3
 30
0.0
  0
VERTEX
  5
F1
100
AcDbEntity
  8
SLKBOT
100
AcDbVertex
100
AcDb2dVertex
 10
0.315
 20
2.3
 30
0.0
  0
SEQEND
  5
F2
100
AcDbEntity
  8
SLKBOT
  0
TEXT
  5
F3
100
AcDbEntity
  8
REFDBT
100
AcDbText
 10
0.583905
 20
2.230875
 30
0.0
 40
0.03825
  1
R290
 41
0.88
 71
     2
 72
     4
 11
0.525
 21
2.25
 31
0.0
100
AcDbText
  0
POLYLINE
  5
F4
100
AcDbEntity
  8
SLKBOT
100
AcDb2dPolyline
 66
     1
 10
0.0
 20
0.0
 30
0.0
 40
0.015
 41
0.015
  0
VERTEX
  5
F5
100
AcDbEntity
  8
SLKBOT
100
AcDbVertex
100
AcDb2dVertex
 10
0.37
 20
2.617
 30
0.0
  0
VERTEX
  5
F6
100
AcDbEntity
  8
SLKBOT
100
AcDbVertex
100
AcDb2dVertex
 10
0.48
 20
2.617
 30
0.0
  0
SEQEND
  5
F7
100
AcDbEntity
  8
SLKBOT
  0
POLYLINE
  5
F8
100
AcDbEntity
  8
SLKBOT
100
AcDb2dPolyline
 66
     1
 10
0.0
 20
0.0
 30
0.0
 70
     1
  0
VERTEX
  5
F9
100
AcDbEntity
  8
SLKBOT
100
AcDbVertex
100
AcDb2dVertex
 10
0.37
 20
2.537
 30
0.0
  0
VERTEX
  5
FA
100
AcDbEntity
  8
SLKBOT
100
AcDbVertex
100
AcDb2dVertex
 10
0.37
 20
2.734
 30
0.0
  0
VERTEX
  5
FB
100
AcDbEntity
  8
SLKBOT
100
AcDbVertex
100
AcDb2dVertex
 10
0.48
 20
2.734
 30
0.0
  0
VERTEX
  5
FC
100
AcDbEntity
  8
SLKBOT
100
AcDbVertex
100
AcDb2dVertex
 10
0.48
 20
2.537
 30
0.0
  0
VERTEX
  5
FD
100
AcDbEntity
  8
SLKBOT
100
AcDbVertex
100
AcDb2dVertex
 10
0.37
 20
2.537
 30
0.0
  0
SEQEND
  5
FE
100
AcDbEntity
  8
SLKBOT
  0
TEXT
  5
FF
100
AcDbEntity
  8
REFDBT
100
AcDbText
 10
0.45305
 20
2.755875
 30
0.0
 40
0.03825
  1
D2
 41
0.88
 71
     2
 72
     4
 11
0.425
 21
2.775
 31
0.0
100
AcDbText
  0
POLYLINE
  5
100
100
AcDbEntity
  8
SLKBOT
100
AcDb2dPolyline
 66
     1
 10
0.0
 20
0.0
 30
0.0
 70
     1
  0
VERTEX
  5
101
100
AcDbEntity
  8
SLKBOT
100
AcDbVertex
100
AcDb2dVertex
 10
0.093
 20
1.084
 30
0.0
  0
VERTEX
  5
102
100
AcDbEntity
  8
SLKBOT
100
AcDbVertex
100
AcDb2dVertex
 10
0.093
 20
2.266
 30
0.0
  0
VERTEX
  5
103
100
AcDbEntity
  8
SLKBOT
100
AcDbVertex
100
AcDb2dVertex
 10
0.407
 20
2.266
 30
0.0
  0
VERTEX
  5
104
100
AcDbEntity
  8
SLKBOT
100
AcDbVertex
100
AcDb2dVertex
 10
0.407
 20
1.084
 30
0.0
  0
VERTEX
  5
105
100
AcDbEntity
  8
SLKBOT
100
AcDbVertex
100
AcDb2dVertex
 10
0.093
 20
1.084
 30
0.0
  0
SEQEND
  5
106
100
AcDbEntity
  8
SLKBOT
  0
TEXT
  5
107
100
AcDbEntity
  8
SLKBOT
100
AcDbText
 10
0.32125
 20
2.156233
 30
0.0
 40
0.0425
  1
1
 50
90.0
 41
0.88
 71
     2
 72
     4
 11
0.3
 21
2.15
 31
0.0
100
AcDbText
  0
TEXT
  5
108
100
AcDbEntity
  8
REFDBT
100
AcDbText
 10
0.27805
 20
1.030875
 30
0.0
 40
0.03825
  1
J9
 41
0.88
 71
     2
 72
     4
 11
0.25
 21
1.05
 31
0.0
100
AcDbText
  0
POLYLINE
  5
109
100
AcDbEntity
  8
CENTRA
100
AcDb2dPolyline
 66
     1
 10
0.0
 20
0.0
 30
0.0
 40
0.05
 41
0.05
  0
VERTEX
  5
10A
100
AcDbEntity
  8
CENTRA
100
AcDbVertex
100
AcDb2dVertex
 10
-0.275
 20
-0.025
 30
0.0
  0
VERTEX
  5
10B
100
AcDbEntity
  8
CENTRA
100
AcDbVertex
100
AcDb2dVertex
 10
-0.125
 20
-0.025
 30
0.0
  0
VERTEX
  5
10C
100
AcDbEntity
  8
CENTRA
100
AcDbVertex
100
AcDb2dVertex
 10
-0.025
 20
-0.125
 30
0.0
  0
VERTEX
  5
10D
100
AcDbEntity
  8
CENTRA
100
AcDbVertex
100
AcDb2dVertex
 10
-0.025
 20
-0.275
 30
0.0
  0
SEQEND
  5
10E
100
AcDbEntity
  8
CENTRA
  0
POLYLINE
  5
10F
100
AcDbEntity
  8
CENTRA
100
AcDb2dPolyline
 66
     1
 10
0.0
 20
0.0
 30
0.0
 40
0.05
 41
0.05
  0
VERTEX
  5
110
100
AcDbEntity
  8
CENTRA
100
AcDbVertex
100
AcDb2dVertex
 10
8.925
 20
-0.275
 30
0.0
  0
VERTEX
  5
111
100
AcDbEntity
  8
CENTRA
100
AcDbVertex
100
AcDb2dVertex
 10
8.925
 20
-0.125
 30
0.0
  0
VERTEX
  5
112
100
AcDbEntity
  8
CENTRA
100
AcDbVertex
100
AcDb2dVertex
 10
9.025
 20
-0.025
 30
0.0
  0
VERTEX
  5
113
100
AcDbEntity
  8
CENTRA
100
AcDbVertex
100
AcDb2dVertex
 10
9.175
 20
-0.025
 30
0.0
  0
SEQEND
  5
114
100
AcDbEntity
  8
CENTRA
  0
POLYLINE
  5
115
100
AcDbEntity
  8
CENTRA
100
AcDb2dPolyline
 66
     1
 10
0.0
 20
0.0
 30
0.0
 40
0.05
 41
0.05
  0
VERTEX
  5
116
100
AcDbEntity
  8
CENTRA
100
AcDbVertex
100
AcDb2dVertex
 10
9.175
 20
3.883
 30
0.0
  0
VERTEX
  5
117
100
AcDbEntity
  8
CENTRA
100
AcDbVertex
100
AcDb2dVertex
 10
9.025
 20
3.883
 30
0.0
  0
VERTEX
  5
118
100
AcDbEntity
  8
CENTRA
100
AcDbVertex
100
AcDb2dVertex
 10
8.925
 20
3.983
 30
0.0
  0
VERTEX
  5
119
100
AcDbEntity
  8
CENTRA
100
AcDbVertex
100
AcDb2dVertex
 10
8.925
 20
4.133
 30
0.0
  0
SEQEND
  5
11A
100
AcDbEntity
  8
CENTRA
  0
POLYLINE
  5
11B
100
AcDbEntity
  8
CENTRA
100
AcDb2dPolyline
 66
     1
 10
0.0
 20
0.0
 30
0.0
 40
0.05
 41
0.05
  0
VERTEX
  5
11C
100
AcDbEntity
  8
CENTRA
100
AcDbVertex
100
AcDb2dVertex
 10
-0.025
 20
4.133
 30
0.0
  0
VERTEX
  5
11D
100
AcDbEntity
  8
CENTRA
100
AcDbVertex
100
AcDb2dVertex
 10
-0.025
 20
3.983
 30
0.0
  0
VERTEX
  5
11E
100
AcDbEntity
  8
CENTRA
100
AcDbVertex
100
AcDb2dVertex
 10
-0.125
 20
3.883
 30
0.0
  0
VERTEX
  5
11F
100
AcDbEntity
  8
CENTRA
100
AcDbVertex
100
AcDb2dVertex
 10
-0.275
 20
3.883
 30
0.0
  0
SEQEND
  5
120
100
AcDbEntity
  8
CENTRA
  0
POLYLINE
  5
121
100
AcDbEntity
  8
CENTRA
100
AcDb2dPolyline
 66
     1
 10
0.0
 20
0.0
 30
0.0
 70
     1
  0
VERTEX
  5
122
100
AcDbEntity
  8
CENTRA
100
AcDbVertex
100
AcDb2dVertex
 10
-0.324
 20
-0.324
 30
0.0
  0
VERTEX
  5
123
100
AcDbEntity
  8
CENTRA
100
AcDbVertex
100
AcDb2dVertex
 10
-0.324
 20
-0.276
 30
0.0
  0
VERTEX
  5
124
100
AcDbEntity
  8
CENTRA
100
AcDbVertex
100
AcDb2dVertex
 10
-0.276
 20
-0.276
 30
0.0
  0
VERTEX
  5
125
100
AcDbEntity
  8
CENTRA
100
AcDbVertex
100
AcDb2dVertex
 10
-0.276
 20
-0.324
 30
0.0
  0
VERTEX
  5
126
100
AcDbEntity
  8
CENTRA
100
AcDbVertex
100
AcDb2dVertex
 10
-0.324
 20
-0.324
 30
0.0
  0
SEQEND
  5
127
100
AcDbEntity
  8
CENTRA
  0
POLYLINE
  5
128
100
AcDbEntity
  8
CENTRA
100
AcDb2dPolyline
 66
     1
 10
0.0
 20
0.0
 30
0.0
 70
     1
  0
VERTEX
  5
129
100
AcDbEntity
  8
CENTRA
100
AcDbVertex
100
AcDb2dVertex
 10
-0.398
 20
-0.398
 30
0.0
  0
VERTEX
  5
12A
100
AcDbEntity
  8
CENTRA
100
AcDbVertex
100
AcDb2dVertex
 10
-0.398
 20
-0.202
 30
0.0
  0
VERTEX
  5
12B
100
AcDbEntity
  8
CENTRA
100
AcDbVertex
100
AcDb2dVertex
 10
-0.202
 20
-0.202
 30
0.0
  0
VERTEX
  5
12C
100
AcDbEntity
  8
CENTRA
100
AcDbVertex
100
AcDb2dVertex
 10
-0.202
 20
-0.398
 30
0.0
  0
VERTEX
  5
12D
100
AcDbEntity
  8
CENTRA
100
AcDbVertex
100
AcDb2dVertex
 10
-0.398
 20
-0.398
 30
0.0
  0
SEQEND
  5
12E
100
AcDbEntity
  8
CENTRA
  0
POLYLINE
  5
12F
100
AcDbEntity
  8
CENTRA
100
AcDb2dPolyline
 66
     1
 10
0.0
 20
0.0
 30
0.0
  0
VERTEX
  5
130
100
AcDbEntity
  8
CENTRA
100
AcDbVertex
100
AcDb2dVertex
 10
-0.3
 20
-0.324
 30
0.0
  0
VERTEX
  5
131
100
AcDbEntity
  8
CENTRA
100
AcDbVertex
100
AcDb2dVertex
 10
-0.3
 20
-0.477
 30
0.0
  0
SEQEND
  5
132
100
AcDbEntity
  8
CENTRA
  0
POLYLINE
  5
133
100
AcDbEntity
  8
CENTRA
100
AcDb2dPolyline
 66
     1
 10
0.0
 20
0.0
 30
0.0
  0
VERTEX
  5
134
100
AcDbEntity
  8
CENTRA
100
AcDbVertex
100
AcDb2dVertex
 10
-0.3
 20
-0.276
 30
0.0
  0
VERTEX
  5
135
100
AcDbEntity
  8
CENTRA
100
AcDbVertex
100
AcDb2dVertex
 10
-0.3
 20
-0.123
 30
0.0
  0
SEQEND
  5
136
100
AcDbEntity
  8
CENTRA
  0
POLYLINE
  5
137
100
AcDbEntity
  8
CENTRA
100
AcDb2dPolyline
 66
     1
 10
0.0
 20
0.0
 30
0.0
  0
VERTEX
  5
138
100
AcDbEntity
  8
CENTRA
100
AcDbVertex
100
AcDb2dVertex
 10
-0.276
 20
-0.3
 30
0.0
  0
VERTEX
  5
139
100
AcDbEntity
  8
CENTRA
100
AcDbVertex
100
AcDb2dVertex
 10
-0.123
 20
-0.3
 30
0.0
  0
SEQEND
  5
13A
100
AcDbEntity
  8
CENTRA
  0
POLYLINE
  5
13B
100
AcDbEntity
  8
CENTRA
100
AcDb2dPolyline
 66
     1
 10
0.0
 20
0.0
 30
0.0
  0
VERTEX
  5
13C
100
AcDbEntity
  8
CENTRA
100
AcDbVertex
100
AcDb2dVertex
 10
-0.324
 20
-0.3
 30
0.0
  0
VERTEX
  5
13D
100
AcDbEntity
  8
CENTRA
100
AcDbVertex
100
AcDb2dVertex
 10
-0.477
 20
-0.3
 30
0.0
  0
SEQEND
  5
13E
100
AcDbEntity
  8
CENTRA
  0
POLYLINE
  5
13F
100
AcDbEntity
  8
CENTRA
100
AcDb2dPolyline
 66
     1
 10
0.0
 20
0.0
 30
0.0
 70
     1
  0
VERTEX
  5
140
100
AcDbEntity
  8
CENTRA
100
AcDbVertex
100
AcDb2dVertex
 10
9.226
 20
4.176
 30
0.0
  0
VERTEX
  5
141
100
AcDbEntity
  8
CENTRA
100
AcDbVertex
100
AcDb2dVertex
 10
9.226
 20
4.224
 30
0.0
  0
VERTEX
  5
142
100
AcDbEntity
  8
CENTRA
100
AcDbVertex
100
AcDb2dVertex
 10
9.274
 20
4.224
 30
0.0
  0
VERTEX
  5
143
100
AcDbEntity
  8
CENTRA
100
AcDbVertex
100
AcDb2dVertex
 10
9.274
 20
4.176
 30
0.0
  0
VERTEX
  5
144
100
AcDbEntity
  8
CENTRA
100
AcDbVertex
100
AcDb2dVertex
 10
9.226
 20
4.176
 30
0.0
  0
SEQEND
  5
145
100
AcDbEntity
  8
CENTRA
  0
POLYLINE
  5
146
100
AcDbEntity
  8
CENTRA
100
AcDb2dPolyline
 66
     1
 10
0.0
 20
0.0
 30
0.0
 70
     1
  0
VERTEX
  5
147
100
AcDbEntity
  8
CENTRA
100
AcDbVertex
100
AcDb2dVertex
 10
9.152
 20
4.102
 30
0.0
  0
VERTEX
  5
148
100
AcDbEntity
  8
CENTRA
100
AcDbVertex
100
AcDb2dVertex
 10
9.152
 20
4.298
 30
0.0
  0
VERTEX
  5
149
100
AcDbEntity
  8
CENTRA
100
AcDbVertex
100
AcDb2dVertex
 10
9.348
 20
4.298
 30
0.0
  0
VERTEX
  5
14A
100
AcDbEntity
  8
CENTRA
100
AcDbVertex
100
AcDb2dVertex
 10
9.348
 20
4.102
 30
0.0
  0
VERTEX
  5
14B
100
AcDbEntity
  8
CENTRA
100
AcDbVertex
100
AcDb2dVertex
 10
9.152
 20
4.102
 30
0.0
  0
SEQEND
  5
14C
100
AcDbEntity
  8
CENTRA
  0
POLYLINE
  5
14D
100
AcDbEntity
  8
CENTRA
100
AcDb2dPolyline
 66
     1
 10
0.0
 20
0.0
 30
0.0
  0
VERTEX
  5
14E
100
AcDbEntity
  8
CENTRA
100
AcDbVertex
100
AcDb2dVertex
 10
9.25
 20
4.176
 30
0.0
  0
VERTEX
  5
14F
100
AcDbEntity
  8
CENTRA
100
AcDbVertex
100
AcDb2dVertex
 10
9.25
 20
4.023
 30
0.0
  0
SEQEND
  5
150
100
AcDbEntity
  8
CENTRA
  0
POLYLINE
  5
151
100
AcDbEntity
  8
CENTRA
100
AcDb2dPolyline
 66
     1
 10
0.0
 20
0.0
 30
0.0
  0
VERTEX
  5
152
100
AcDbEntity
  8
CENTRA
100
AcDbVertex
100
AcDb2dVertex
 10
9.25
 20
4.224
 30
0.0
  0
VERTEX
  5
153
100
AcDbEntity
  8
CENTRA
100
AcDbVertex
100
AcDb2dVertex
 10
9.25
 20
4.377
 30
0.0
  0
SEQEND
  5
154
100
AcDbEntity
  8
CENTRA
  0
POLYLINE
  5
155
100
AcDbEntity
  8
CENTRA
100
AcDb2dPolyline
 66
     1
 10
0.0
 20
0.0
 30
0.0
  0
VERTEX
  5
156
100
AcDbEntity
  8
CENTRA
100
AcDbVertex
100
AcDb2dVertex
 10
9.274
 20
4.2
 30
0.0
  0
VERTEX
  5
157
100
AcDbEntity
  8
CENTRA
100
AcDbVertex
100
AcDb2dVertex
 10
9.427
 20
4.2
 30
0.0
  0
SEQEND
  5
158
100
AcDbEntity
  8
CENTRA
  0
POLYLINE
  5
159
100
AcDbEntity
  8
CENTRA
100
AcDb2dPolyline
 66
     1
 10
0.0
 20
0.0
 30
0.0
  0
VERTEX
  5
15A
100
AcDbEntity
  8
CENTRA
100
AcDbVertex
100
AcDb2dVertex
 10
9.226
 20
4.2
 30
0.0
  0
VERTEX
  5
15B
100
AcDbEntity
  8
CENTRA
100
AcDbVertex
100
AcDb2dVertex
 10
9.073
 20
4.2
 30
0.0
  0
SEQEND
  5
15C
100
AcDbEntity
  8
CENTRA
  0
TEXT
  5
15D
100
AcDbEntity
  8
TEXIN
100
AcDbText
 10
0.8
 20
-0.2
 30
0.0
 40
0.085
  1
16-02-2001
 41
0.88
 71
     2
100
AcDbText
  0
TEXT
  5
15E
100
AcDbEntity
  8
TEXIN
100
AcDbText
 10
3.05
 20
-0.2
 30
0.0
 40
0.085
  1
DS2784
 41
0.88
 71
     2
100
AcDbText
  0
TEXT
  5
15F
100
AcDbEntity
  8
TEXIN
100
AcDbText
 10
5.45
 20
-0.2
 30
0.0
 40
0.085
  1
ROB3
 41
0.88
 71
     2
100
AcDbText
  0
TEXT
  5
162
100
AcDbEntity
  8
TEXIN
100
AcDbText
 10
8.7
 20
-0.2
 30
0.0
 40
0.085
  1
DISELEC ELECTRONICA,S.L.
 41
0.88
 71
     2
100
AcDbText
  0
POLYLINE
  5
163
100
AcDbEntity
  8
BRDOUT
100
AcDb2dPolyline
 66
     1
 10
0.0
 20
0.0
 30
0.0
  0
VERTEX
  5
164
100
AcDbEntity
  8
BRDOUT
100
AcDbVertex
100
AcDb2dVertex
 10
0.0
 20
0.0
 30
0.0
  0
VERTEX
  5
165
100
AcDbEntity
  8
BRDOUT
100
AcDbVertex
100
AcDb2dVertex
 10
8.9
 20
0.0
 30
0.0
  0
VERTEX
  5
166
100
AcDbEntity
  8
BRDOUT
100
AcDbVertex
100
AcDb2dVertex
 10
8.9
 20
3.858
 30
0.0
  0
VERTEX
  5
167
100
AcDbEntity
  8
BRDOUT
100
AcDbVertex
100
AcDb2dVertex
 10
0.0
 20
3.858
 30
0.0
  0
VERTEX
  5
168
100
AcDbEntity
  8
BRDOUT
100
AcDbVertex
100
AcDb2dVertex
 10
0.0
 20
0.0
 30
0.0
  0
SEQEND
  5
169
100
AcDbEntity
  8
BRDOUT
  0
TEXT
  5
16A
100
AcDbEntity
  8
REFDBT
100
AcDbText
 10
5.45
 20
-0.5
 30
0.0
 40
0.085
  1
SERIGRAFIA CARA L2 E.:1/1 (10C)
 41
0.88
 71
     2
100
AcDbText
  0
DIMENSION
  5
17B
100
AcDbEntity
  8
0
  6
CONTINUOUS
100
AcDbDimension
  2
*D0
 10
-0.550302
 20
2.266
 30
0.0
 11
-0.550302
 21
3.062
 31
0.0
 70
    32
  3
STANDARD
100
AcDbAlignedDimension
 13
0.0
 23
3.858
 33
0.0
 14
0.093
 24
2.266
 34
0.0
 50
90.0
100
AcDbRotatedDimension
1001
ACAD
1000
DSTYLE
1002
{
1070
   140
1040
0.06
1070
    74
1070
     0
1070
    73
1070
     0
1070
   146
1040
0.06
1070
   170
1070
     1
1002
}
  0
DIMENSION
  5
197
100
AcDbEntity
  8
0
  6
CONTINUOUS
100
AcDbDimension
  2
*D1
 10
-0.402008
 20
1.084
 30
0.0
 11
-0.402008
 21
1.675
 31
0.0
 12
0.148294
 22
0.0
 32
0.0
 70
    32
  3
STANDARD
100
AcDbAlignedDimension
 13
0.241294
 23
2.266
 33
0.0
 14
0.241294
 24
1.084
 34
0.0
 50
90.0
100
AcDbRotatedDimension
1001
ACAD
1000
DSTYLE
1002
{
1070
   140
1040
0.06
1070
    74
1070
     0
1070
    73
1070
     0
1070
   146
1040
0.06
1070
   170
1070
     1
1002
}
  0
DIMENSION
  5
1A5
100
AcDbEntity
  8
0
  6
CONTINUOUS
100
AcDbDimension
  2
*D2
 10
-0.550302
 20
0.0
 30
0.0
 11
-0.550302
 21
0.542
 31
0.0
 70
    32
  3
STANDARD
100
AcDbAlignedDimension
 13
0.093
 23
1.084
 33
0.0
 14
0.0
 24
0.0
 34
0.0
 50
90.0
100
AcDbRotatedDimension
1001
ACAD
1000
DSTYLE
1002
{
1070
   140
1040
0.06
1070
    74
1070
     0
1070
    73
1070
     0
1070
   146
1040
0.06
1070
   170
1070
     1
1002
}
  0
ENDSEC
  0
SECTION
  2
OBJECTS
  0
DICTIONARY
  5
C
100
AcDbDictionary
  3
ACAD_GROUP
350
D
  3
ACAD_MLINESTYLE
350
1B
  0
DICTIONARY
  5
D
102
{ACAD_REACTORS
330
C
102
}
100
AcDbDictionary
  0
DICTIONARY
  5
1B
102
{ACAD_REACTORS
330
C
102
}
100
AcDbDictionary
  3
STANDARD
350
1C
  0
MLINESTYLE
  5
1C
102
{ACAD_REACTORS
330
1B
102
}
100
AcDbMlineStyle
  2
STANDARD
 70
     0
  3

 62
   256
 51
90.0
 52
90.0
 71
     2
 49
0.5
 62
   256
  6
BYLAYER
 49
-0.5
 62
   256
  6
BYLAYER
  0
ENDSEC
  0
EOF
